Chargement...
 
[Voir/Cacher menus de gauche]
[Voir/Cacher menus de droite]

Prise en main de Wavbreaker


Cette page aidera à la prise en main de Wavbreaker au travers de 2 tutos.






Une première approche : découpage d'un enregistrement de 40 minutes composé de 9 morceaux.


Wavbreaker ne peut rien faire sans un fichier audio. Dès le lancement, Menu "Fichier/Ouvrir" (ou icône "Ouvrir") pour importer le fichier audio à découper.

Image

Dans la partie haute, en dessous des menus et des icônes, un cadre nous affiche un graphe du fichier en entier. Les séparations entre les différents morceaux sont nettement visibles, on distingue ici les 9 morceaux à séparer.

Tout à gauche du graphe, apparaît une partie plus claire (quelques millimètres sur l'image) qui est la partie zoomée en dessous. Le cadre principal d'en-dessous est en effet un zoom qui permettra de placer finement les repères de découpe.

Dans le cadre du bas, apparaissent les différents fichiers issus du découpage à effectuer. Pour l'instant, aucune découpe n'a été faite, il n'y a qu'un morceau, qui porte le nom de mon fichier, qui débute au temps 00:00.00 (0 minute:0 seconde.0 centième) et qui dure 40 minutes, 26 secondes et 9 centièmes.

Pour paramétrer le premier point de découpe, on va :
  1. choisir la partie à zoomer en cliquant sur la vue générale du fichier.
  2. cliquer pour placer le point de découpe (ligne rouge) dans la fenêtre du zoom.
  3. cliquer sur le bouton "+Ajouter"

Image

Le premier morceau reste bleu, mais un deuxième est maintenant rouge, et une ligne est apparue dans le cadre du bas. Elle nous indique que ce deuxième morceau commence au repère placé en "2" (voir ci-dessus), au temps 04:50.12 et dure jusqu'à la fin, soit 35 minutes, 35 secondes et 72/100.
Un double clic sur le nom du fichier (nommé ici automatiquement "midnite Intense Pressure-02") permet de le renommer.

On va ainsi marquer tous les points de découpe avec, à chaque fois, un sympathique changement de couleur.

Image

À ce stade là, 2 possibilités d'export. Soit un fichier TOC qui permettra de graver notre unique fichier wav sur un CD audio avec les différents morceaux identifiés, soit d'enregistrer séparément chaque morceau sous forme d'un fichier wav.

Pour le fichier TOC, il y a un bouton bien visible "Exportation vers TOC". Accessible aussi par le menu "Édition" qui nous apprend 2 choses intéressantes : le raccourci clavier Ctrl+E, et la possibilité d'importer un fichier TOC pour reprendre ultérieurement un découpage insatisfaisant.

Contenu du fichier TOC exporté dans notre exemple :
// Generated with wavbreaker

CD_DA

// track 00
TRACK AUDIO
FILE "Midnite Intense Pressure.wav" 0:00:00 4:49:69

// track 01
TRACK AUDIO
FILE "Midnite Intense Pressure.wav" 4:49:69 5:12:44

// track 02
TRACK AUDIO
FILE "Midnite Intense Pressure.wav" 10:02:38 4:14:65

// track 03
TRACK AUDIO
FILE "Midnite Intense Pressure.wav" 14:17:28 4:15:20

// track 04
TRACK AUDIO
FILE "Midnite Intense Pressure.wav" 18:32:48 4:29:24

// track 05
TRACK AUDIO
FILE "Midnite Intense Pressure.wav" 23:01:72 4:08:73

// track 06
TRACK AUDIO
FILE "Midnite Intense Pressure.wav" 27:10:70 4:28:16

// track 07
TRACK AUDIO
FILE "Midnite Intense Pressure.wav" 31:39:11 4:28:05

// track 08
TRACK AUDIO
FILE "Midnite Intense Pressure.wav" 36:07:16


Les boutons "Enregistrer" et "Enregistrer sous" (accessibles aussi par le menu "Fichiers") vont exporter chaque morceau en fichier wav individuel.

Le bouton "Enregistrer" va écrire ces 9 fichiers à l'emplacement défini dans les préférences. Je n'y ai rien défini, ça serait donc à la racine de mon répertoire personnel qui est déjà un souk innommable ! On va éviter ! (Et penser à paramétrer les préférences pour la prochaine fois...)

Le bouton "Enregistrer sous" nous permet de choisir le répertoire de destination. Répertoire dans lequel chaque fichier sera sauvegardé sous le nom défini.

Image





Deuxième approche : découpage d'un enregistrement en échantillons de même longueur.


Wavbreaker propose une fonction de découpage d'un fichier audio en multiples tronçons de durée prédéfinie.

Cette fonction peut être utilise pour échantillonner un instrument afin d'utiliser ces échantillons dans Petri-foo ou Tapeutape, voire l'intégrer dans une banque de son avec Polyphone.

Pour l'exemple qui suit, j'ai créé (dans Rosegarden) une séquence qui, toutes les 4 secondes, envoie à un synthé une note en "balayant" le clavier de Do1 à Do6.

La sortie audio du synthé est enregistrée dans un fichier unique que je nomme Sample.wav. Une retouche dans Audacity n'est pas superflue, pour nettoyer un éventuel bruit de fond, et pour découper précisément le début sur l'attaque de la première note.

À vérifier aussi l'intervalle de 4 secondes entre chaque note. Dans mon cas, j'ai dû appliquer l'effet "Modifier la vitesse" d'un facteur -0.020 pour caler ma dernière note pile poil.


Je charge donc mon fichier Sample.wav dans Wavbreaker.

Rien ne m'empêche de définir "à la main" tous les points de découpe, mais je vais utiliser ce bouton "Coupure automatique" (accessible aussi via le menu "Édition" ou le raccourci clavier Ctrl+A).



Image

Un clic sur ce bouton ouvre une fenêtre dans laquelle je dois saisir la durée de chaque tronçon.

Image

0min:4sec.0/100, c'est la longueur de chaque échantillon...

"Valider" et...

Image

... chacun de mes échantillons a sa couleur, le découpage est paramétré.

La sauvegarde s'effectue comme dans l'exemple précédent, pour obtenir mes échantillons numérotés dans l'ordre.







Collaborateur(s) de cette page : olinuxx , sub26nico et Geis007 .
Page dernièrement modifiée le Vendredi 29 mai 2020 17:04:36 par olinuxx.
Le contenu de cette page est licencié sous les termes licence.

Documentation [Afficher / Cacher]

Connexion
[Afficher / Cacher]



Mégaphone [Afficher / Cacher]

minimoineau, 15:20, lun. 19 Oct 2020: Salut à tous, on aurait besoin d'aide pour faire tourner une Saffire pro 26 dans le forum [Lien] svp!
calixtus06, 20:40, sam. 17 Oct 2020: Bienvenu à Dan.p :-)
olinuxx, 19:34, sam. 17 Oct 2020: Bonjour et bienvenue à Dan.p cool
calixtus06, 23:00, ven. 16 Oct 2020: Bienvenue à MorganeH :-)
calixtus06, 09:56, jeu. 15 Oct 2020: Bienvenue à Michelk ! :-)
olinuxx, 14:44, mar. 13 Oct 2020: Merci @Sahaathyva, ça fait plaisir. @tous : n'hésitez pas à commenter l'édito, ça fait plaisir de voir que le travail est apprécié !
Sahaathyva, 10:49, mar. 13 Oct 2020: Encore 1 super edito, merci a vous !!!
calixtus06, 10:12, lun. 12 Oct 2020: Bienvenue à pat01111967 :-)
olinuxx, 11:50, sam. 10 Oct 2020: Bonjour et bienvenue à Ched, Lalain, courage, reno, et Nellou cool
piep, 15:15, mer. 07 Oct 2020: bienvenue à l'ami Reno. va sur "Mon LinuxMAO" et positionne toi sur la carte. merci
allany, 15:53, mar. 06 Oct 2020: @r1 : ouaip, quelle équipe !
calixtus06, 08:06, mar. 06 Oct 2020: Bienvenue ! courage,Lalain et Ched :-)